Tori Amos Setlist Database User Dashboard  

Browse All Collections

 Log in with Facebook

2017 Native Invader
  Shows   Stats
  Debut Dates

All Tours
  Stats  Never Played

14-15:   Shows   Stats
2012:   Shows   Stats
2011:   Shows   Stats
2010:   Shows   Stats
09-10:   Shows   Stats
2007:   Shows   Stats
2005:   Shows   Stats
2003:   Shows   Stats
02-03:   Shows   Stats
2001:   Shows   Stats
1999:   Shows   Stats
1998:   Shows   Stats
1996:   Shows   Stats
1994:   Shows   Stats
1992:   Shows   Stats

Important Stuff:
   What's New
   FAQ
   Future Directions
   How You Can Help
   Thank-Yous

Contact Information:
   Join Mailing List
   torisetlist@gmail.com

Seattle, WA (Sea2)
Saturday, August 29, 1992
Moore Theater
Little Earthquakes Tour
Dent Review:  

Note: Data is very sporadic for this tour. Setlist may be incomplete or out of order.

Tori Amos - 1992-08-29 - Seattle (liberated boot 'Me And A Piano' from silver CD)

Original Link: http://www.dimeadozen.org/torrents-details.php?id=79079
Size: 321.13 MB
Uploaded by: docrupard

From silvers (scans of all art and disc included), a one-disc boot of a solo Tori doing her Little Earthquakes thing. Sound quality is a-minus--only a bit of reverb on the vocal marks this one as an AUD. Sample below.

--Doc

============================================================

Tori Amos
1992-08-29
Moore Theatre, Seattle

01. war (labeled as 'numbness')
02. crucify
03. precious things
04. happy phantom
05. leather
06. here in my head
07. little earthquakes
08. whole lotta love
09. thank you (labeled as 'welcome')
10. me and a gun
11. winter
12. smells like teen spirit
13. mother
14. tear in your hand
15. song for eric

length expanded size cdr WAVE problems filename
1:39.33 17541260 --- -- ---xx 01 ta1992-08-29d1t01.flac
5:54.44 62549132 --- -- ---xx 02 ta1992-08-29d1t02.flac
5:28.06 57873356 --- -- ---xx 03 ta1992-08-29d1t03.flac
3:35.04 37935452 --- -- ---xx 04 ta1992-08-29d1t04.flac
3:25.35 36244364 --- -- ---xx 05 ta1992-08-29d1t05.flac
4:37.51 48982796 --- -- ---xx 06 ta1992-08-29d1t06.flac
8:29.69 89949932 --- -- ---xx 07 ta1992-08-29d1t07.flac
1:51.66 19735676 --- -- ---xx 08 ta1992-08-29d1t08.flac
2:49.06 29825756 --- -- ---xx 09 ta1992-08-29d1t09.flac
5:44.64 60832172 --- -- ---xx 10 ta1992-08-29d1t10.flac
7:00.50 74205644 --- -- ---xx 11 ta1992-08-29d1t11.flac
3:28.37 36778268 --- -- ---xx 12 ta1992-08-29d1t12.flac
6:51.72 72669788 --- -- ---xx 13 ta1992-08-29d1t13.flac
5:16.36 55827116 --- -- ---xx 14 ta1992-08-29d1t14.flac
2:33.18 27031580 --- -- ---xx 15 ta1992-08-29d1t15.flac
68:46.66 727982292 B (totals for 15 files, 0.4607 overall compression ratio)

There were no sector boundary errors.